《神幻拍档主题曲》(07-GHOST)[OP Single - 緋色のカケラ][铃希ゆき][附BK][APE+PVISO]

《神幻拍档主题曲》(07-GHOST)[OP Single - 緋色のカケラ][铃希ゆき][附BK][APE+PVISO]
  • 片  名  《神幻拍档主题曲》(07-GHOST)[OP Single - 緋色のカケラ][铃希ゆき][附BK][APE+PVISO]
  • 简  介  发行时间: 2009年07月29日对白语言: 日语文字语言: 日文
  • 类  别  动漫
  • 小  类  动漫周边


  • 详细介绍中文名: 神幻拍档主题曲英文名: 07-GHOST版本: [OP Single - 緋色のカケラ][铃希ゆき][附BK][APE+PVISO]发行时间: 2009年07月29日地区: 日本对白语言: 日语文字语言: 日文简介: 【内容介绍】
    千年之前,在这大地之上存在着两股强大势力。
    其一是由“拉斐尔之瞳”神所守护的巴鲁斯布尔库帝国,
    另一个则是被“米卡尔之瞳”神所守护的拉古斯王国。
    10年前,拉古斯王国的守护神“菲尔罗恩”由于身体依然在沉睡之中,
    因此由“潘多拉魔盒”所引起的战争导致拉古斯王国破灭。
    10年后……
    在拉古斯王国陷落之前,一位戴着项链的男子出现在泰德的梦中款款道来“泰德,你已经知道自己背负的使命已经到来了吧”。
    “怎么,又做这个梦了吗?”
    泰德的挚友米卡杰将泰德从梦中唤醒了过来。
    两人都是巴鲁斯布尔库帝国陆军士官学校的学生,为了进入那憧憬的霍克布尔库要塞,两人都心怀满满的期待着挑战毕业考试。
    但是当与率领着被称为「漆黑霍克」战斗部队的阿亚那米参谋长官相遇之时,泰德的记忆苏醒了……
    因为这个拿着沾满鲜血的剑的阿亚那米便是梦中的那个男人!而寂静躺在血泊之中的男子尽然是泰德的父亲……
    而泰德的真实身份便是灭亡的拉古斯王国的王子。
    得知一切的泰德为了避免被杀害而踏上了逃亡之旅……
    【单曲介绍】
    TVアニメ 07-GHOST OPテーマ「緋色のカケラ」/铃希ゆき*商品番号 AVCA-29256
    *メディア マキシシングル CD
    *組枚数 2
    *価格 1890円(税込)
    *発売日 2009/07/29
    *内容
    コミックZERO-SUMで大好評連載中の人気コミック『07-GHOST』がアニメ化! OP曲を歌うのは鈴希ゆき! DVDにはPVを収録予定!!
    【アーティスト/ キャスト】
    鈴希ゆき (アーティスト) Kana Noria (作詞者) NAOKI MAEDA (作曲者) Ryo (編曲者) 中川幸太郎 (編曲者) 鳴瀬シュウヘイ (作曲者)
    【收录曲目】
    01.緋色のカケラ
    02.シグナル
    03.緋色のカケラ (instrumental)
    04.シグナル (instrumental)
  • 《神幻拍档主题曲》(07-GHOST)[OP Single - 緋色のカケラ][铃希ゆき][附BK][APE+PVISO]_large

精选评论

难道说……沙发?
楼主 神与你同在
啊诺!~~无损的收下了!~
终于有无损了,幸福
泪奔~~~~~~~~
其实我更喜欢ED
2.38KB/s下的好辛苦哦 奔泪中...............
下载得好慢啊··
啊偶果然来得太晚了...大爱这部~~
弗泰大好无损万岁~~
好听啊
REM GENRE Anime
REM DATE 2009
REM DISCID 2F039004
REM COMMENT "ExactAudioCopy v0.95b3"
PERFORMER "鈴希ゆき"
TITLE "緋色のカケラ"
FILE "鈴希ゆき - 緋色のカケラ.ape" WAVE
TRACK 01 AUDIO
TITLE "緋色のカケラ"
PERFORMER "鈴希ゆき"
INDEX 01 00:00:00
TRACK 02 AUDIO
TITLE "シグナル"
PERFORMER "鈴希ゆき"
INDEX 00 03:37:74
INDEX 01 03:39:35
TRACK 03 AUDIO
TITLE "緋色のカケラ (instrumental)"
PERFORMER "鈴希ゆき"
INDEX 00 07:35:34
INDEX 01 07:37:71
TRACK 04 AUDIO
TITLE "シグナル (instrumental)"
PERFORMER "鈴希ゆき"
INDEX 00 11:16:18
INDEX 01 11:17:54
貌似下的很慢啊