Fritz Reiner (莱纳) & Chicago Symphony Orchestra -《里姆斯基-柯萨科夫:天方夜谭;德彪西:大海》(Rimsky-Korsakov: Scheherazade; Debussy: La Mer)DECCA[APE]

Fritz Reiner (莱纳) & Chicago Symphony Orchestra -《里姆斯基-柯萨科夫:天方夜谭;德彪西:大海》(Rimsky-Korsakov: Scheherazade; Debussy: La Mer)DECCA[APE]
  • 片  名  Fritz Reiner (莱纳) & Chicago Symphony Orchestra -《里姆斯基-柯萨科夫:天方夜谭;德彪西:大海》(Rimsky-Korsakov: Scheherazade; Debussy: La Mer)DECCA[APE]
  • 简  介  发行时间: 1991年10月04日
  • 类  别  音乐
  • 小  类  古典音乐


  • 详细介绍专辑英文名: Rimsky-Korsakov: Scheherazade; Debussy: La Mer专辑中文名: 里姆斯基-柯萨科夫:天方夜谭;德彪西:大海别名: 舍赫拉查达交响组曲,交响音画-大海,艺术家: Fritz Reiner (莱纳)
    Chicago Symphony Orchestra资源格式: APE版本: DECCA发行时间: 1991年10月04日语言: 英语简介:
    专辑介绍:
    里姆斯基-柯萨科夫:天方夜谭组曲
      又译《舍赫拉查达交响组曲》, 作于1888年,管弦乐曲。 同年在彼得堡首演。 这一组曲取材于着名的阿拉伯民间故事集《一千零一夜》(即《天方夜谭》)。作者在初版总谱上介绍了原作的梗概:古代阿拉伯的苏丹王沙赫里亚尔专横而残酷,他认为女人皆居心叵测而不贞,于是他每天娶一位新娘,次日便处死。机智的少女山鲁佐德(又译“舍赫拉查达”)嫁给这位苏丹王之后,在当夜给苏丹王讲了一个离奇生动的故事。第二天,这个故事正讲到关键之处,被山鲁佐德的故事所深深吸引的苏丹王,为了继续听下去,破例没有处死山鲁佐德这位新娘。之后,山鲁佐德又以同样的方式给苏丹王讲了一连串的动听故事,一直讲了一千零一个夜晚。最后,苏丹王被山鲁佐德的故事所感化,终于彻底放弃了残酷的念头,决心与山鲁佐德白头偕老。
      全曲共分为四个乐章,在最早出版的总谱中,每个乐章均附有标题,标题内容取自《一千零一夜》里的故事:
      第一乐章“海洋与辛巴达的船”;
      第二乐章“卡伦德王子的故事”;
      第三乐章“王子与公主”;
      第四乐章“巴格达的节日,大海,船在耸立着青铜骑士的岩石旁遇难,终曲”。
      但在重版时,作者将各乐章的小标题全部删去了。为此作者指出:“我采用这些提示,只是想把听众的想像,引入我自己的想像所遵循的发展轨道,使每一个人都能自由地想像更为详细的个别细节。”看来作者后来并不希望本曲具有过于明确的标题内容。前苏联音乐学家阿萨菲耶夫评论本曲时说道: “在富于造型性、色彩性的组曲中,里姆斯基-柯萨科夫充分发挥了他的造型能力与幻想力。在这里起着重要作用的不是情绪的紧张度和戏剧性,而是色彩和装饰的对照性配置,是优美的节奏和出色的表现力。……在这部大规模展开的东方风格的交响组曲中,有着用音响来表现的风光景物、风俗性场面、传奇性故事以及抒情性的插曲。……在色彩合理的配置、动力性的音响(音的积蓄与释放)、拍节的匀称以及诸音乐要素的平衡等方面,《天方夜谭组曲》无疑是里姆斯基-柯萨科夫的交响组曲中最成功的。”
    这里主要介绍交响组曲的第一乐章“海洋与辛巴达的船”。乐章的序奏为庄严的广板,序奏的第一主题为苏丹王沙赫里亚尔主题,显得威严而冷酷;序奏第二主题为山鲁佐德主题,由优美抒情的小提琴奏出,具有浓郁的东方色彩。接下来乐章便进入辛巴达的故事氛围之中, 首先呈示出大海主题,其旋律悠长而且带有起伏性,给人以浩瀚、宽广的海洋形象;然后是一组带有东方色彩的上行音,由木管乐器奏出,仿佛辛巴达的小船在大海上轻轻飘行,紧接着由长笛奏出柔和的辛巴达主题.
    德彪西:意象,大海
      交响音画《大海》,作于1905年三月,初演于1905年十月。本曲为德彪西最大的一部交响音乐作品,由三个不同内容的乐章组成,但每个乐章之间又有内在的联系,集中起来构成一部完整的作品。它表现了 大海 的景色及其富有动态的性格,并通过整个乐队的不同音区,极为强烈地表现出 大海
  • Fritz Reiner (莱纳) & Chicago Symphony Orchestra -《里姆斯基-柯萨科夫:天方夜谭;德彪西:大海》(Rimsky-Korsakov: Scheherazade; Debussy: La Mer)DECCA[APE]_large

精选评论

莱纳的指挥雄浑有力,节奏感非常好,谢谢这张好碟。
这张碟听起来很棒!
演绎一流,录音也是一流,很久之前下载了,特意来感谢一番~
美哉,LA Mer
好好好好好好好好!
版本:DECCA

不对吧,应该是RCA或者BMG吧?
cue文件不能用啊,楼主
修改了一下,可以用拉。


PERFORMER "Fritz Reiner"
TITLE "Rimsky-Korsakov--Scheherazade.Debussy--La Mer"
FILE "CDImage.ape" WAVE
TRACK 01 AUDIO
TITLE "Symphonic Suite after 'A Thousand and One Nights' - The Sea and Sinbad's Ship"
PERFORMER "Fritz Reiner"
INDEX 01 00:00:00
TRACK 02 AUDIO
TITLE "- The Story of the Kalender Prince"
PERFORMER "Fritz Reiner"
INDEX 00 09:02:70
INDEX 01 09:06:65
TRACK 03 AUDIO
TITLE "- The Young Prince and the Young Princess"
PERFORMER "Fritz Reiner"
INDEX 00 20:39:13
INDEX 01 20:43:35
TRACK 04 AUDIO
TITLE "- Festival in Bagdad;The Sea;The Ship Goes to Pieces on a Rock"
PERFORMER "Fritz Reiner"
INDEX 00 32:41:45
INDEX 01 32:44:15
TRACK 05 AUDIO
TITLE "La Mer - De l'aube a midi sur la mer/From Dawn Till Noon on the Sea"
PERFORMER "Fritz Reiner"
INDEX 00 44:21:40
INDEX 01 44:32:43
TRACK 06 AUDIO
TITLE "- Jeux des vagues/Play of the Waves"
PERFORMER "Fritz Reiner"
INDEX 00 54:47:30
INDEX 01 54:50:68
TRACK 07 AUDIO
TITLE "- Dialogue du vent et de la mer/Dialogue of the Wind and the Sea"
PERFORMER "Fritz Reiner"
INDEX 00 61:15:65
INDEX 01 61:20:18
传说中各大唱片天书中首推的《天方夜谭》
可是听起来声音感觉有一点炸
可能是我耳机的问题吧。。。
依然支持!
下了,谢谢
Noted and thanks!
找了好久的,感谢
好像没源了