灵丽 -《偷偷望你一眼》[FLAC]

灵丽 -《偷偷望你一眼》[FLAC]
  • 片  名  灵丽 -《偷偷望你一眼》[FLAC]
  • 简  介  音乐风格: 民谣发行时间: 1994年地区: 大陆语言: 普通话
  • 类  别  音乐
  • 小  类  华语音乐


  • 详细介绍专辑中文名: 偷偷望你一眼歌手: 灵丽音乐风格: 民谣资源格式: FLAC发行时间: 1994年地区: 大陆语言: 普通话简介:
    引用REM DATE 1994年
    PERFORMER 灵丽
    TITLE 偷偷望你一眼
    FILE 灵丽 - [偷偷望你一眼].(内嵌cue)专辑.flac WAVE
    TRACK 01 AUDIO
    TITLE 偷偷望你一眼
    INDEX 01 00:00:00
    TRACK 02 AUDIO
    TITLE 想着你
    INDEX 01 04:04:30
    TRACK 03 AUDIO
    TITLE 小院门
    INDEX 01 07:48:70
    TRACK 04 AUDIO
    TITLE 三月好春光
    INDEX 01 11:46:50
    TRACK 05 AUDIO
    TITLE 妹妹好心酸
    INDEX 01 15:20:22
    TRACK 06 AUDIO
    TITLE 七月天,真晴朗
    INDEX 01 19:16:32
    TRACK 07 AUDIO
    TITLE 相思妹
    INDEX 01 22:25:50
    TRACK 08 AUDIO
    TITLE 四季都欢畅
    INDEX 01 25:45:25
    TRACK 09 AUDIO
    TITLE 小新娘
    INDEX 01 28:39:00
    TRACK 10 AUDIO
    TITLE 小妹踏青
    INDEX 01 32:46:00
    TRACK 11 AUDIO
    TITLE 等你来
    INDEX 01 36:07:50
    TRACK 12 AUDIO
    TITLE 牵你的手,牵我的手
    INDEX 01 40:35:50
    TRACK 13 AUDIO
    TITLE 潇洒的你
    INDEX 01 44:44:10
    TRACK 14 AUDIO
    TITLE 真心换真心
    INDEX 01 48:54:25
    TRACK 15 AUDIO
    TITLE 小小船儿载满爱
    INDEX 01 52:27:10专辑介绍:
      灵丽是与高林生、毛宁、杨玉莹等同一时期出道的歌手。这张唱片是好久以前买的了!放了几年没有听,前一阵翻出来用CD机一放,那音质依旧能带给我惊喜。
      灵丽的声线甜美,在网上搜了一下,关于她的信息不多。当年是辽宁鞍山曲艺团的演员,经过友人介绍结识了韩乘光老师,并且相继推出了三张个人专集,不过在出版了首张唱片 桃花情 以后,灵丽就同韩乘光老师离开了广州太平洋影音公司.
    在广东艺术文化公司出版了 偷偷望你一眼 及 这雨很美丽 之后,灵丽就悄然的退出了歌坛。这张唱片虽然是94年出的,但制作的水准不低。
      我是用foobar2000抓轨的,cue内嵌。本人第一次发布资源,并且是1兆的ADSL电信宽带上传,做源不易,请网友们大力分流。不妥之处请多指教!
     
     
  • 灵丽 -《偷偷望你一眼》[FLAC]_large

精选评论

下来听听,感谢提供资源的人,非常的感谢你们,我也提供共享在硬盘里面~~
申请加精不成功,管理员能给个提醒哪里不对吗?谢谢!
建议将文件名:灵丽.-.偷偷望你一眼.flac,修改为:灵丽.-.[偷偷望你一眼].专辑.(FLAC).flac
将CUE文件也按上面的格式分享出来,CUE文件放在下面。没有CUE文件是很多难申请加精的!最好还能将Log文件也贴出来!我没有发布过资源,实在没有资格说什么的,但看多了。看到楼主没有申精成功,心里急而已!
感谢分享!
谢谢楼上的朋友。下午经过几次修改都提交不了,估计是驴子出问题了。明天再试吧。